#TITLE:Hats, Gloves, and Overalls;
#SUBTITLE:Super Mario World;
#ARTIST:Mr.;
#TITLETRANSLIT:;
#SUBTITLETRANSLIT:;
#ARTISTTRANSLIT:;
#CREDIT:;
#BANNER:Hats, Gloves, and Overalls.jpg;
#BACKGROUND:Hats, Gloves, and Overalls-bg.jpg;
#LYRICSPATH:;
#CDTITLE:!macTitle.png;
#MUSIC:Hats, Gloves, and Overalls.mp3;
#OFFSET:-0.300;
#SAMPLESTART:115.000;
#SAMPLELENGTH:9.500;
#SELECTABLE:YES;
#BPMS:0.000=104.020,4.000=208.031;
#STOPS:;
#BGCHANGES:;
// cache tags:
#FIRSTBEAT:0.000;
#LASTBEAT:537.750;
#SONGFILENAME:Songs/Music V.I.P ^_^/Hats, Gloves, and Overalls (MacGravel)/Hat, Gloves, and Overalls.sm;
#HASMUSIC:1;
#HASBANNER:1;
#MUSICLENGTH:159.744;
// end cache tags

//---------------dance-single - ----------------
#NOTES:
     dance-single:
     :
     Hard:
     11:
     1.000,1.000,1.000,0.138,0.567,1066.000,286.000,22.000,0.000,1.000:

2000
0000
0000
0000
0000
0000
0000
0000
3002
0000
0000
0000
0000
0000
2003
0000
3200
0000
0300
0000
0020
0000
0032
0000
0003
0000
1000
0001
0110
0000
0000
0000
,
1000
1000
0110
1000
1000
0001
0110
1001
,
0000
0000
0100
0010
1001
0000
0100
0000
0010
0000
1000
0000
0101
0000
0110
0000
,
0001
0010
0100
1000
0001
0100
0010
1000
0100
0010
0100
1000
0001
0010
0100
1000
,
0100
0010
0001
0100
0010
0100
0001
0010
0100
1000
0010
1000
0010
0100
0001
0100
,
0002
0000
0000
0000
0000
0000
1003
0000
0000
0100
0000
0000
0010
0000
0000
0000
0000
0000
0001
0000
0000
0000
0000
0000
0010
0000
0000
0100
0000
0000
1000
0000
0000
0000
0000
0000
0001
0000
0000
0000
1000
0000
0000
0000
0100
0000
0000
0000
,
0010
0001
1000
0100
1000
0001
0010
0001
1000
0100
1000
0001
,
0100
0001
0100
0010
1000
0010
1000
0001
0010
0000
0001
0010
0100
0000
0010
0100
,
1000
0010
0100
0001
1000
0100
0010
0001
1000
0010
0100
0001
,
1000
0010
1010
0001
0100
0010
0101
0001
,
0010
0000
1000
0010
0101
0000
1000
0000
0010
0000
0100
0000
1001
0000
0100
0000
,
0001
1000
0010
0100
0010
1000
0100
1000
0001
0010
0100
1000
0100
0010
0001
0100
,
0010
1000
0010
0100
0001
0100
0010
1000
0100
0010
0001
0010
0100
1000
0010
0100
,
0001
0000
0010
0000
0110
0000
1000
0001
1000
0000
0100
0000
1010
0000
0001
1000
,
0001
0000
1000
0000
0110
0000
1000
0001
1000
0000
0010
0000
1100
0000
0001
0000
,
0100
0010
0101
0010
0110
1000
1100
0011
,
0000
0000
1000
0001
1100
0000
0010
0000
0110
0000
0001
0000
1010
0000
0001
0010
,
1100
0000
0000
0000
0000
0000
0000
0000
1001
0000
0000
0000
0000
0000
0000
0000
0001
0000
0000
0000
0010
0100
0000
0000
0000
0000
0000
0000
1000
0000
0000
0000
,
0100
1000
0000
0000
0000
0000
0000
0000
0010
0000
0000
0000
0100
0001
0000
0000
0000
0000
0000
0000
0001
0000
0000
0000
1001
0000
0000
0000
0001
0000
1000
0000
,
0001
0000
0100
0001
1000
0000
0100
1000
0001
0000
0100
0001
1000
0000
1001
0000
,
1000
0000
0100
0000
0010
0000
0001
0000
0100
0000
0010
0000
1000
0000
0100
0000
0010
0000
0001
0000
0010
0000
0100
0000
1000
0001
0000
0000
0101
0000
0000
0000
,
0000
0000
1000
0000
0100
0010
0000
0001
,
0000
0000
0010
0000
0100
1000
0000
0100
,
0000
0000
0010
0000
0001
0010
0000
0100
,
0000
0000
0000
0000
0000
0000
0000
0000
1000
0000
0000
0000
0000
0000
0000
0000
0010
1000
0000
0000
0101
0000
0000
0000
0000
0000
0000
0000
0110
0000
0000
0000
,
0000
0000
1000
0000
0100
0010
0000
0100
,
0000
0000
0000
0000
0000
0000
0000
0000
1000
0000
0000
0000
0010
0000
1000
0000
0001
0100
0000
0000
1001
0000
0000
0000
0000
0000
0000
0000
0011
0000
0000
0000
,
0000
0000
0000
0000
0000
0000
1000
0000
0000
0100
0000
0000
0011
0000
0000
0000
0000
0000
0001
0000
0000
0000
0000
0000
1000
0000
0000
0000
0100
0000
0000
0000
1000
0000
0000
0000
0110
0000
0000
0000
0000
0000
0001
0000
0000
0000
0000
0000
,
1000
0000
0100
0000
1000
0000
0011
0000
1000
0000
0100
0000
0011
0000
0000
0110
0000
0000
1001
0000
0000
0010
0000
0000
,
0100
0000
0001
0010
1100
0000
0001
0000
1010
0000
1001
0000
0010
0000
0110
0000
,
1000
0010
0011
0100
0110
1001
0010
1100
,
0001
0100
1010
0010
0101
0110
1000
0101
,
0010
0100
1010
0001
1100
1100
0010
1010
,
0001
1000
0110
0010
0101
0110
1000
0011
,
0100
0010
0110
1000
0011
0110
0100
1001
,
0100
0010
1100
0100
1010
1001
0100
1000
,
0110
0000
0110
0000
0001
0000
1010
0000
1010
0000
1000
0100
0010
0001
0200
0000
,
0000
0010
0010
0000
0310
1010
0000
0100
,
1010
0000
0001
0110
0000
0001
0110
0000
,
1000
0100
0011
0000
0100
1010
0000
1001
,
0000
0000
0000
0000
0001
0000
1000
0000
1000
0000
1000
0000
1000
0000
1000
0001
,
1000
1000
0101
0000
1000
1100
0000
0010
,
0101
0000
0010
1100
0000
0100
1010
0000
,
0001
0001
0110
0000
0001
1100
0000
0010
,
0100
0000
0001
0000
1010
0000
0100
0000
1001
0000
0010
0000
1100
0000
1000
0001
,
0020
0100
0100
0000
1030
1100
0000
0100
,
0110
0000
0010
0011
0000
0001
0101
0000
,
0010
0100
1010
0000
0001
1001
0000
0110
,
0000
0000
0000
0000
0100
0000
0010
0000
0010
0000
0010
0000
0010
0000
0010
1000
,
0010
0010
1100
0000
1000
1100
0000
0001
,
0011
0000
1000
1100
0000
0010
1100
0000
,
0010
0100
0011
0000
1000
0110
0000
0100
,
1001
0000
0100
0000
1100
0000
0001
0000
1100
0000
0100
0000
1001
0000
0010
0001
,
0110
0000
1001
0000
0100
0100
1010
0000
,
0010
0010
0101
0100
0001
0001
0110
0000
,
1100
0000
0101
0000
0001
0001
1010
0000
,
0010
0000
1000
0000
0110
0000
1000
0000
0011
0000
1000
0000
0101
0000
0010
1000
,
0101
0000
1010
0000
1000
1000
0110
0000
,
0100
0100
0011
0100
1000
1000
0110
0000
,
1001
0000
0101
0000
0010
0010
1100
0000
,
1001
0001
0100
0010
1000
0100
0010
0101
,
0002
1000
1000
0000
0103
0110
0000
0001
,
1100
0000
0010
1001
0000
0010
0101
0000
,
0100
0010
1010
0000
0100
1010
0000
1000
,
0100
0000
0011
0000
1000
0000
0001
0000
0110
0000
0100
0000
0010
1000
0010
0000
,
2000
0000
0000
0000
3002
0000
0000
0000
2003
0000
0000
0000
3002
0000
0000
0003
,
2100
0000
0000
0000
0000
3000
0210
0000
0000
0000
0321
0030
1002
0003
0120
0030
,
0000
0000
1000
0001
0110
0000
0000
0000
0001
0000
0010
0000
1100
0000
0010
0000
,
1000
0001
0110
0001
0010
0100
1001
0100
,
1000
0010
1001
0010
1000
0100
0110
0001
,
0010
0100
1001
0010
0100
0001
0110
0001
,
0010
0001
0110
0001
0010
0100
1010
0100
,
1000
0010
0101
0010
0100
1000
0110
0001
,
1000
0000
0001
0010
1100
0000
1000
0000
0001
0000
0100
0000
0011
0000
0010
0000
,
0100
0000
1000
0100
0011
0000
0100
0010
1100
0001
0100
0000
1010
0000
0101
0000
,
0000
0000
1000
0001
0110
0000
1000
0000
0001
0000
0100
0000
0110
0000
0001
0000
,
1000
0100
0011
0100
0010
0001
1100
0010
,
1000
0010
0110
0001
0100
1000
0110
0001
,
0010
0000
0000
0000
0000
0000
0100
0000
0000
0000
0000
0000
1010
0000
0000
0000
0000
0000
0001
0000
0000
1000
0000
0000
0001
0000
0000
0000
1000
0000
0000
0000
0001
0000
0000
0000
1000
0000
0000
0000
0000
0000
0100
0000
0000
0000
0000
0000
,
0000
0000
1000
0100
0010
0001
0100
0010
0100
0010
1000
0001
0100
0010
1000
0100
,
0010
0100
1000
0001
0010
0100
0010
0001
1000
0100
1000
0100
1000
0000
0001
0000
,
0000
0000
1000
0010
0101
0000
0000
0000
1000
0100
0010
0100
1000
0000
0010
0000
,
0000
0000
0010
0100
1010
0000
0001
0100
1010
0100
0001
0000
1010
0000
0101
0000
,
1000
0000
0100
0000
1010
0000
0100
0000
0001
0100
0001
0010
0100
1000
0010
0100
,
0010
0100
0001
1000
0100
1000
0010
0100
0001
0010
0100
1000
0010
0100
0001
0010
,
0100
1000
0001
0100
0010
1000
0001
0100
0010
0100
0001
1000
0001
0100
0001
1000
,
0100
1000
0010
0100
0001
0010
0100
1000
0010
0000
1000
0000
0011
0000
0100
0000
,
0010
0000
1000
0010
0100
0000
1000
0000
0001
0000
0100
0000
1010
0000
0010
0000
,
1000
0001
1000
0000
0001
1000
0001
0000
1000
0100
0010
0001
1000
0000
0200
0000
,
0000
0000
1300
0001
0110
0000
1000
0000
0001
0000
0100
0000
0011
0000
0010
0000
,
0100
0000
0001
0010
1100
0000
0010
1000
0101
0010
1000
0000
0101
0000
2010
0000
,
0000
0010
0010
0000
3010
0011
0000
0010
,
0110
0000
1000
0011
0000
0010
1100
0000
,
0001
0001
0110
0000
1000
1100
0000
0011
,
0000
0000
0000
0000
0100
0000
0010
0000
0010
0000
0010
0000
0010
0000
0010
0001
,
0010
0010
1001
0000
0010
0101
0000
1000
,
0110
0000
0010
1100
0000
0001
0110
0000
,
0100
0100
0011
0000
1000
0110
0000
0001
,
1010
0000
0110
0000
1000
0000
0101
0000
0110
0000
0100
0000
0001
1000
0001
1000
,
0001
0001
1001
0000
1000
1100
0000
0100
,
0110
0000
0010
0011
0000
0001
0101
0000
,
0010
0100
1010
0000
0001
1001
0000
0110
,
0000
0000
0000
0000
0100
0000
0001
0000
0001
0000
0001
0000
0001
0000
0001
0100
,
0001
0001
0110
0000
1000
1100
0000
0001
,
0011
0000
1000
1100
0000
0010
1100
0000
,
0010
0100
0011
0000
1000
0110
0000
0100
,
0110
0000
1000
0000
0011
0000
0100
0000
0011
0000
1000
0000
0011
0000
0100
1000
,
0110
0001
1010
0100
0010
0001
0110
0001
,
1000
0010
0101
0010
0100
0001
0110
0001
,
1000
0100
1010
0100
1000
0010
0101
0010
,
0001
0000
1000
0000
0101
0000
0010
0000
1010
0000
0100
0000
0101
0000
0001
1000
,
0101
0000
0101
0000
1000
1000
1100
0000
,
0010
0100
0101
0010
0100
0010
1100
0000
,
0101
0000
1010
0000
0010
1000
1100
0000
,
1000
0100
0010
0001
1000
0100
0010
0001
1000
0100
0010
0001
1000
0000
0001
1000
,
0001
0000
0101
0000
0010
0010
0101
0000
,
1000
1000
0101
1000
1000
1000
0110
0000
,
1001
0000
0110
0000
1000
1000
0101
0000
,
0001
0000
0010
0000
1100
0000
0010
0000
0110
0000
0001
0000
1010
0000
0100
0010
,
1100
0000
0101
0000
0010
0100
0101
0000
,
0010
1000
1100
0010
0001
0010
0110
0000
,
1001
0000
0000
0000
1010
0000
0000
0000
0001
0000
0110
0000
1000
0100
0010
0001
,
1000
0100
0000
1100
0000
0000
0000
0011
,
1001
0001
0100
0101
0010
1000
0110
0100
,
0011
1100
0010
0110
0001
0100
1001
0010
,
1100
0110
1001
0011
0100
1001
0110
1100
,
0010
0001
0011
0100
1000
0010
1001
0010
,
1100
0001
0110
0001
0010
0100
1010
0100
,
1000
0010
0101
0010
0100
1000
0110
1000
,
0010
0001
0110
0001
1000
0100
1010
0100
,
1000
0010
0101
0010
1000
0101
0011
1001
,
1010
0110
1010
0110
,
1010
0000
0000
1001
0000
0001
0110
2100
,
0000
0000
0000
0000
,
0000
0000
0000
0000
0000
3001
0010
0100
0000
0000
0000
0000
0000
0000
0000
0000
;
